&title=[宴] Reach For The Stars
&artist=大谷智哉, Jean Paul Makhlouf of Cash Cash「ソニック カラーズ」
&wholebpm=203
&demo_seek=52.5
&demo_len=20.3
&lv_7=蔵
&inote_7=(203.0){1},
{8}3,2,1,8h[2:1],,7,6,5h[2:1],
{8},2,3,2h[2:1],,1,8,1,
{8}8,7,6,5h[2:1],,4,3,2h[2:1],
{8},3,4,5h[8:5],,6,7,8,
{2}2h[2:1],1h[2:1],
{2}8h[2:1],7h[2:1],
{8}6h[8:5],,,,,7h[8:1],8h[1:1],1h[8:7],{1},
{2}5h[2:1],6h[2:1],
{2}7h[2:1],8h[2:1],
{8}1h[8:5],,,,,8,1,2h[8:7]/7h[8:7],{1},
{8}4,5/4,3,6/3,2,7/2,1,8/1,
{8}1,8/1,2,7/2,3,6/3,4,5/4,
{8}4,8/4,3,7/3,2,6/2,1,5/1,
{8}1,5/1,2,6/2,3,7/3,4,8/4,
{8}5,4/5,6,3/6,7,2/7,8,1/8,
{8}8,1/8,7,2/7,6,3/6,5,4/5,
{8}5,1/5,6,2/6,7,3/7,8,4/8,
{8}8,4/8,7,3/7,6,2/6,5,1/5,
{8}8,7/1,7,7/1,7,7/3,7,7/3,
{8}8,7/2,7,7/2,7,7/4,7,7/4,
{8}5,6/8,6,6/8,6,6/2,6,6/2,
{8}5,6/1,6,6/1,6,6/3,6,6/3,
{8}1,2/8,2,2/8,2,2/6,2,2/6,
{8}1,2/7,2,2/7,2,2/5,2,2/5,
{8}4,3/1,3,3/1,3,3/7,3,3/7,
{8}4,3/8,3,3/8,3,3/6,3,3/6,
{8}6,5,5/2,5,5/1,5/1,5,5/8h[8:9],
{8}6,5,5,5,5,5,5,5,
{8}4,5,3/5,5,2/5,2/5,5,5/2h[8:9],
{8}4,5,5,5,5,5,5,5,
{8}3,4,4/7,4,4/8,4/8,4,4/1h[8:5],
{8}3,4,4,4,2/5,,6/1,,
{2}7-4[8:1]/8-3[8:1],1-6[8:1]/2-5[8:1],
{2}1^4[8:1]/8^5[8:1],6^3[8:1]/7^2[8:1],
{8}8,,6,7,,,5,,
{8}1,,3,2,,,8-5[8:1],,
{4}8-4[8:1],8-3[8:1],8-4[8:1],8-5[8:1],
{4}8-4[8:1],8-3[8:1],8-4[8:1],8,
{4},8,4,1,
{4}6h[2:1],,3,1-4[8:1],
{4}8-5[8:1],7-2[8:1],3-6[8:1],8-4[8:1],
{4}5^8[8:1],1^4[8:1],8-5[8:1],4,
{8}5,,2,3,,6,7,5,
{8}8,,4,5,,2,8-5[8:1],8,
{4}1-4[8:1],2-7[8:1],6-3[8:1],1-5[8:1],
{4}4^1[8:1],8^5[8:1],1-4[8:1],5,
{4},3/5,2/7,6/4,
{4}3h[8:3]/5h[8:3],,5/3,1^4[8:1]/8^5[8:1],
{8}1-4[8:1]/8-5[8:1],,1-5[8:1]/8-4[8:1],,1/8,,,3b/6b,
{16},,7b/2b,,,,1b/8b,,,,,,2b,7,2b,7,
{8}1,6/3,2,7/4,1,5/3,2,6/4,
{8}3,1/7,4,2/8,3,1/6,4,2/7,
{8}5,7/2,6,8/3,5,7/1,6,2/8,
{8}7,5/3,8,6/4,7,2/5,8,3/6,
{8}5/1,1/5,2/6,6/2,3/7,3/7,4/8,4/8,
{8}5/8,5/8,3/8,8/3,1/8,8/1,8/1,,
{2}7-4[8:1]/8-3[8:1],1-6[8:1]/2-5[8:1],
{2}1^4[8:1]/8^5[8:1],6^3[8:1]/7^2[8:1],
{8}1/5,3/7,2/6,4/8,7/3,1/5,4/8,2/6,
{8}1/5,3/7,2/6,8/4,7/3,5/1,8/4,6/2,
{8}7/1,3/6,8/2,4/5,3/7,6/1,8/4,2/5,
{8}8/1,3/5,2/7,4/6,3/8,1/5,4/7,6/2,
{8}3/1,,6/8,,5/3,6/4,,4/2,
{4},4/5,3/6,2/7,
{8}8h[2:1]/1h[2:1],,,,,2b/7b,6b/3b,4b/5b,
{4},,,5-2[1:2]/6-1[1:2],{1},,,
{4},,,1-4[1:2]/8-5[1:2],{1},,,
E
